Tabung Bersama Mu

Blog Widget by LinkWithin

Thursday, March 18, 2010

Order of Chaos 2010 DVDRip XviD-SPRiNTER

Format: AVI
Format/Info: Audio Video Interleave
File size: 697 MiB
Duration: 1h 28mn
Overall bit rate: 1 100 Kbps
Writing application: VirtualDubMod 1.5.10.2 (build 2540/release)
Writing library: VirtualDubMod build 2540/release

Video
ID: 0
Format: MPEG-4 Visual
Format profile: AdvancedSimple@L5
Format settings, BVOP: Yes
Format settings, QPel: No
Format settings, GMC: No warppoints
Format settings, Matrix: Default (H.263)
Codec ID: XVID
Codec ID/Hint: XviD
Duration: 1h 28mn
Bit rate: 928 Kbps
Width: 608 pixels
Height: 256 pixels
Display aspect ratio: 2.35:1
Frame rate: 23.976 fps
Resolution: 24 bits
Colorimetry: 4:2:0
Scan type: Progressive
Bits/(Pixel*Frame): 0.249
Stream size: 589 MiB (84%)
Writing library: XviD 1.2.1 (UTC 2008-12-04)

Audio
ID: 1
Format: MPEG Audio
Format version: Version 1
Format profile: Layer 3
Format_Settings_Mode: Joint stereo / MS Stereo
Codec ID: 55
Codec ID/Hint: MP3
Duration: 1h 28mn
Bit rate mode: Variable
Bit rate: 158 Kbps
Minimum bit rate: 160 Kbps
Channel(s): 2 channels
Sampling rate: 48.0 KHz
Resolution: 16 bits
Stream size: 100 MiB (14%)
Alignment: Aligned on interleaves
Interleave, duration: 24 ms (0.58 video frame)
Interleave, preload duration: 116 ms
Writing library: LAME3.95
Encoding settings: -m j -V 4 -q 3 -lowpass 18 --vbr-old -b 160





Download Link
http://rapidshare.com/files/364659359/sprinter-ordero.part1.rar
http://rapidshare.com/files/364660769/sprinter-ordero.part2.rar
http://rapidshare.com/files/364661351/sprinter-ordero.part3.rar
http://rapidshare.com/files/364659370/sprinter-ordero.part4.rar


Korang Suka Jaga Tepi Kain Orang ??? Klik KatSini tapi Kalau Nak Gelak Sampai Pecah Pundi Kencing Klik La Kat Sini


2 comments:

Anonymous said...

vimax pills - good blog friends! Post your article which is also useful for readers and to share information or experiences you have. I will visit your blog again. penis enlargement pills - http://www.male-sexual.com

Anonymous said...

They are becoming the enhancement option of choice for many men for several reasons. vimax pills is the best penis enlargement pills on the market today.more info visit http://www.male-sexual.com/vimax-pills.html
- http://www.pillspenisproducts.com

Post a Comment

Say Something

 
Disclaimer :
aReaL Blog's does not stores any files on its server. And We does not reserve any rights to the content listed on these pages. All references are copyright to their respective owners.If you have any clarifications to be made or If you find any contents in this site which you think can be offensive contact me at are_realize@hotmail.com content will be removed or modified accordingly.Thank You